THE Crew PC GOLD Edition!
Post #1
viper1402|| 
Members

14/03/2015 15:26:38
(243 weeks ago)
Ratio: 2.07
Posts: 3
Bangladesh  
Please upload the Crew PC Gold edition. (Cracked version)
Thanks in advance.
cry.gif cry.gif cry.gif cry.gif cry.gif cry.gif cry.gif cry.gif
top

Post #2
kat|| 
Members

17/03/2015 08:36:35
(242 weeks ago)
Ratio: 2.19
Posts: 2
Bangladesh  
Please go to Request Section: http://www.crazyhd.com/index.php?page=requests to make a request.
I searched for The Crew Game and i learn that it is a online based game and if you want to play single player campaign ,you need internet connection.And when you connect to the internet it will check your crack and will disable it.
Know more: http://www.quora.com/I-would-like-to-know-if-The-Crew-has-an-offline-mode
top

Post #3
Istiaksaif|| 
Members

16/05/2018 15:52:56
(77 weeks ago)
Ratio: 9.24
Posts: 1
Bangladesh  
cry.gifcry.gifplease check my mistake here
top

Post #4
faysal577|| 
Members

02/07/2018 05:37:31
(71 weeks ago)
Ratio: 1.54
Posts: 3
Bangladesh  
please check my mistake here
cry.gifcry.gif
top

Post #5
radwanromy|| 
Members

26/05/2019 15:02:42
(24 weeks ago)
Ratio: 0.47
Posts: 2
Bangladesh  
Tamil Movie - Hindi Dubbed Category
top

Post #6
radwanromy|| 
Members

26/05/2019 15:02:50
(24 weeks ago)
Ratio: 0.47
Posts: 2
Bangladesh  
Tamil Movie - Hindi Dubbed Category
top

Post #7
sabbirsarower|| 
Members

27/05/2019 06:39:16
(24 weeks ago)
Ratio: 1.65
Posts: 81
Bangladesh  
Tamil Movie - Hindi Dubbed Category


_______________________________________________
[img]http://www.tejpata.org/decals/SpaRKaR-Ab (1).jpg[/img]

top

Post #8
Ishmam35|| 
memberPRO

27/05/2019 06:47:14
(24 weeks ago)
Ratio: 99.29
Posts: 65
Russian Federation  
WHATARE TALKING ABOUT!!!!!

Last edited by Ishmam35 at 18/08/2019 05:44:26

top

Post #9
RAJ9277WARNED USER !|| 
Members

17/08/2019 05:13:53
(12 weeks ago)
Ratio: 3.73
Posts: 6
Bangladesh  

Code
General
Complete name                            : Raja Babu Bengali Full HD Movie  Mithun Chakraborty Sreelekha Mitra.mp4
Format                                   : MPEG-4
Format profile                           : Base Media / Version 2
Codec ID                                 : mp42 (isom/mp42)
File size                                : 619 MiB
Duration                                 : 2 h 45 min
Overall bit rate mode                    : Variable
Overall bit rate                         : 524 kb/s
Encoded date                             : UTC 2019-05-08 01:42:49
Tagged date                              : UTC 2019-05-08 01:42:49
gsst                                     : 0
gstd                                     : 9908001

Video
ID                                       : 1
Format                                   : AVC
Format/Info                              : Advanced Video Codec
Format profile                           : [email protected]
Format settings                          : CABAC / 3 Ref Frames
Format settings, CABAC                   : Yes
Format settings, Reference frames        : 3 frames
Codec ID                                 : avc1
Codec ID/Info                            : Advanced Video Coding
Duration                                 : 2 h 45 min
Bit rate                                 : 393 kb/s
Width                                    : 1 280 pixels
Height                                   : 720 pixels
Display aspect ratio                     : 16:9
Frame rate mode                          : Constant
Frame rate                               : 24.000 FPS
Color space                              : YUV
Chroma subsampling                       : 4:2:0
Bit depth                                : 8 bits
Scan type                                : Progressive
Bits/(Pixel*Frame)                       : 0.018
Stream size                              : 464 MiB (75%)
Title                                    : ISO Media file produced by Google Inc. Created on: 05/07/2019.
Writing library                          : x264 core 155 r2901 7d0ff22
Encoded date                             : UTC 2019-05-08 01:42:49
Tagged date                              : UTC 2019-05-08 01:42:49
Color range                              : Limited
Color primaries                          : BT.709
Transfer characteristics                 : BT.709
Matrix coefficients                      : BT.709
Codec configuration box                  : avcC

Audio
ID                                       : 2
Format                                   : AAC LC
Format/Info                              : Advanced Audio Codec Low Complexity
Codec ID                                 : mp4a-40-2
Duration                                 : 2 h 45 min
Bit rate mode                            : Variable
Bit rate                                 : 128 kb/s
Channel(s)                               : 2 channels
Channel layout                           : L R
Sampling rate                            : 44.1 kHz
Frame rate                               : 43.066 FPS (1024 SPF)
Compression mode                         : Lossy
Stream size                              : 151 MiB (24%)
Title                                    : ISO Media file produced by Google Inc. Created on: 05/07/2019.
Language                                 : English
Encoded date                             : UTC 2019-05-08 01:42:49
Tagged date                              : UTC 2019-05-08 01:42:49


top

Post #10
RAJ9277WARNED USER !|| 
Members

18/08/2019 00:53:47
(12 weeks ago)
Ratio: 3.73
Posts: 6
Bangladesh  
pls improve my torrent.


Code
General
Complete name                            : Achena Prem Bengali Romantic Movie.mp4
Format                                   : MPEG-4
Format profile                           : Base Media / Version 2
Codec ID                                 : mp42 (isom/mp42)
File size                                : 643 MiB
Duration                                 : 2 h 22 min
Overall bit rate mode                    : Variable
Overall bit rate                         : 630 kb/s
Encoded date                             : UTC 2019-05-01 21:34:57
Tagged date                              : UTC 2019-05-01 21:34:57
gsst                                     : 0
gstd                                     : 8567420

Video
ID                                       : 1
Format                                   : AVC
Format/Info                              : Advanced Video Codec
Format profile                           : [email protected]
Format settings                          : CABAC / 3 Ref Frames
Format settings, CABAC                   : Yes
Format settings, Reference frames        : 3 frames
Codec ID                                 : avc1
Codec ID/Info                            : Advanced Video Coding
Duration                                 : 2 h 22 min
Bit rate                                 : 498 kb/s
Width                                    : 1 280 pixels
Height                                   : 720 pixels
Display aspect ratio                     : 16:9
Frame rate mode                          : Constant
Frame rate                               : 25.000 FPS
Color space                              : YUV
Chroma subsampling                       : 4:2:0
Bit depth                                : 8 bits
Scan type                                : Progressive
Bits/(Pixel*Frame)                       : 0.022
Stream size                              : 509 MiB (79%)
Title                                    : ISO Media file produced by Google Inc. Created on: 05/01/2019.
Writing library                          : x264 core 155 r2901 7d0ff22
Encoded date                             : UTC 2019-05-01 21:34:57
Tagged date                              : UTC 2019-05-01 21:34:57
Color range                              : Limited
Color primaries                          : BT.709
Transfer characteristics                 : BT.709
Matrix coefficients                      : BT.709
Codec configuration box                  : avcC

Audio
ID                                       : 2
Format                                   : AAC LC
Format/Info                              : Advanced Audio Codec Low Complexity
Codec ID                                 : mp4a-40-2
Duration                                 : 2 h 22 min
Bit rate mode                            : Variable
Bit rate                                 : 128 kb/s
Channel(s)                               : 2 channels
Channel layout                           : L R
Sampling rate                            : 44.1 kHz
Frame rate                               : 43.066 FPS (1024 SPF)
Compression mode                         : Lossy
Stream size                              : 131 MiB (20%)
Title                                    : ISO Media file produced by Google Inc. Created on: 05/01/2019.
Encoded date                             : UTC 2019-05-01 21:34:57
Tagged date                              : UTC 2019-05-01 21:34:57
Country: India
Release date: 2011

top